shemaleup.net

Billy DeWitt Bangs Britney Markham's Tranny Ass! 540p

Views:
87
Added:
15.05.2018
favorite
Billy DeWitt Bangs Britney Markham's Tranny Ass!  540p

Genre: Shemale, Hardcore, Anal, Blowjob,
Description: Description of the codec : Windows Media Video 9 - 2-pass VBR
Duration : 24mn 17s
Bit rate : 2 700 Kbps
Width : 960 pixels
Height : 540 pixels
Display aspect ratio : 16:9
Frame rate : 29.970 fps
Bit depth : 8 bits
Scan type : Progressive
Compression mode : Lossy
Bits/(Pixel*Frame) : 0.174
Stream size : 469 MiB (94%)
Audio
ID : 2
Format : WMA
Format version : Version 2
Codec ID : 161
Codec ID/Info : Windows Media Audio
Description of the codec : Windows Media Audio 9 - 128 kbps, 44 kHz, stereo CBR
Duration : 24mn 17s
Bit rate : 128 Kbps
Channel(s) : 2 channels
Sampling rate : 44.1 KHz
Bit depth : 16 bits
Stream size : 22.2 MiB (4%)


Screenshots
Screenshots

Info File:
Size: 501 MiB
Resolution: 540 x 960
Duration: 24 min 17 s
Type: 540p

Preview:


Download:
Download File
Comments (0)
Add comment
reload, if the code cannot be seen
Related video: